Jesslyn Fax
libre de Jurassic World Fallen Kingdom (2018) Español Castellano descargar la versión completa

18+ Red Sparrow 2018 720p BluRay x264 Hindi Audio LLG

DOWNLOAD TORRENT DOWNLOAD DOWNLOAD ANONYMOUS

Posted by LifeLongg •683 on May 17, 2018 in Movies » Drama , verified torrent

Size: 1.26 GB , Seeds: 17 , Peers: 20 ( Updated May 18, 2018 - Refresh )

* Download via Magnet Link , * To download files you need a Bittorrent Client , * How to download torrents from Bit Torrent Scene?

Scrape History ( seeds + peers )

Internal Files

18+.Red.Sparrow.2018.720p.BluRay.x264.Hindi.Audio.LLG
Sample.mp4   14.16 MB
18+.Red.Sparrow.2018.720p.BluRay.x264.Hindi.Audio.LLG.mp4   1.24 GB

Hash Code

a02c03542c7598baea3d626727d3e2348b0585a0

Description

SCREENSHOT

******************************Thumbnail:**********************

SCREENSHOT

******************************Screenshots:********************

Screenshot 1

Screenshot 2

Screenshot 3

Screenshot 4

Screenshot 5

Screenshot 6

Screenshot 7

Screenshot 8

Screenshot 9

Screenshot 0

**************************************************************

Complete name : 18+.Red.Sparrow.2018.720p.BluRay.x264.Hindi.Audio.LLG.mp4
Format : MPEG-4
Format profile : Base Media
Codec ID : isom (isom/iso2/avc1/mp41)
File size : 1.24 GiB
Duration : 2 h 20 min
Overall bit rate : 1 267 kb/s
Writing application : Lavf57.56.101

Video
ID : 1
Format : AVC
Format/Info : Advanced Video Codec
Format profile : [email protected]
Format settings : CABAC / 4 Ref Frames
Format settings, CABAC : Yes
Format settings, RefFrames : 4 frames
Codec ID : avc1
Codec ID/Info : Advanced Video Coding
Duration : 2 h 20 min
Bit rate : 1 200 kb/s
Width : 1 280 pixels
Height : 536 pixels
Display aspect ratio : 2.40:1
Frame rate mode : Constant
Frame rate : 23.976 (23976/1000) FPS
Color space : YUV
Chroma subsampling : 4:2:0
Bit depth : 8 bits
Scan type : Progressive
Bits/(Pixel*Frame) : 0.073
Stream size : 1.17 GiB (94%)

Audio
ID : 2
Format : AAC
Format/Info : Advanced Audio Codec
Format profile : LC
Codec ID : mp4a-40-2
Duration : 2 h 20 min
Bit rate mode : Constant
Bit rate : 64.4 kb/s
Channel(s) : 2 channels
Channel(s)_Original : 6 channels
Channel positions : Front: L C R, Side: L R, LFE
Sampling rate : 48.0 kHz
Frame rate : 46.875 FPS (1024 SPF)
Compression mode : Lossy
Stream size : 64.5 MiB (5%)
Language : Hindi
Default : Yes
Alternate group : 1
Menus : 3

Trackers

Refresh Leechers : Updated May 18, 2018

1. udp://tracker.openbittorrent.com:80/announce

2. udp://tracker.opentrackr.org:1337/announce

Comments

You must log in to add a comment.

Embed Code

Sharing Widget

Related torrents

FILENAME SIZE SEEDS PEERS ADDED UPD
[i] Red Sparrow (2018) [BluRay] [720p] [YTS AM] 1.17 GB 8053 3974 1 week 3 days
[i] Red Sparrow (2018) [BluRay] [1080p] [YTS AM] 2.24 GB 6534 2289 1 week 3 days
[i] Red.Sparrow.2018.HC.HDRip.XviD.AC3-EVO[EtMovies] 1.31 GB 2232 167 1 month 23 hours
[i] Red Sparrow (2018) Jennifer Lawrence.720p.H264.italian.English.Ac3-5.1.sub.ita.eng.MIRCrew
posted by robbyrs3 in Movies - Thriller
2.73 GB 560 492 5 days 4 days
[i] downloadhub in Red Sparrow (2018) 720p BluRay x264 [Dual-Audio][Hindi 5 1 - English 5 1] ESubs - Downloadhub
posted by downloadhub in Movies - Drama
1.31 GB 225 118 6 days 22 hours
[i] Red Sparrow 2018 Bluray H264 Ita Eng Ac3 5 1 Subs RoomCrew mkv
posted by NickTnT in Series - Misc
2.02 GB 177 89 5 days 4 days
[i] Red Sparrow 2018 DTS ITA ENG 1080p BluRay x264-BLUWORLD mkv
posted by SPEEDY4572 in Movies - Thriller
12.49 GB 143 69 6 days 1 hour
[i] Red Sparrow 2018 BRRip XViD AC3-ETRG
posted by juggs in Movies - Thriller
1.42 GB 91 30 1 week 4 days
[i] Red Sparrow 2018 iTA-ENG Bluray 1080p x264-CYBER mkv
posted by NickTnT in Movies - Thriller
10.16 GB 82 18 1 week 1 day
[i] Red Sparrow 2018 720p BRRip x264 AAC-ETRG
posted by juggs in Movies - Thriller
986.65 MB 79 95 1 week 1 week

Top Movies ( auto generated report )

FILENAME SIZE SEEDS PEERS ADDED UPD
[i] Pacific Rim Uprising (2018) [WEBRip] [1080p] [YTS AM] 1.77 GB 10718 5076 2 days 1 day
[i] Pacific Rim Uprising (2018) [WEBRip] [720p] [YTS AM] 943.67 MB 8884 5108 2 days 1 day
[i] Dark Crimes (2016) [WEBRip] [720p] [YTS AM] 793.49 MB 2029 1190 1 day 2 hours
[i] Dark Crimes (2016) [WEBRip] [1080p] [YTS AM] 1.49 GB 1647 730 1 day 2 hours
[i] Deadpool 2 (2018) 720p TS 800MB Ganool 800.73 MB 1542 569 2 days 6 hours
[i] I Kill Giants (2017) [BluRay] [1080p] [YTS AM] 1.71 GB 1385 457 2 days 1 day
[i] I Kill Giants (2017) [BluRay] [720p] [YTS AM] 919.41 MB 1379 567 2 days 1 day
[i] Deadpool 2 2018 HDTS XViD AC3-ETRG 1.3 GB 1049 957 2 days 1 day
[i] Maya the Bee The Honey Games (2018) [BluRay] [720p] [YTS AM] 724.03 MB 686 216 2 days 2 hours
[i] What a Man Wants (2018) 720p HDRip 700MB Ganool 700.39 MB 744 136 2 days 1 day